:Search:

Oppenheimer 2023 1080p BluRay x265 HEVC 10bit AAC 5 1 Vyndros

Torrent:
Thumbnail:
Trailer:
Similar Posts:
Name Uploaded Size Se Le Upl. by
Oppenheimer 2023 1080p BluRay x265 HEVC AAC 5 1 Gypsy 2024-04-15 2.5 GB 44 40 Gypsy
Oppenheimer 1080p ITA x264 MaDHeX MaDTiA_ 2024-03-18 3.9 GB 2 4 madhex
Oppenheimer 2023 Eng Fre Ger Ita Spa Cze Pol 2160p BluRay Remux HDR H… 2024-03-13 90.2 GB 342 347 SGF
Oppenheimer 2023 1080p BluRay IMAX ENG LATINO CASTELLANO DD5 1 H265 B… 2024-03-09 7.6 GB 5 806 Freddy1714
In the Shadow of the Bomb Oppenheimer Bethe and the Moral Responsibil… 2024-03-08 2.2 MB 16 18 zakareya
Selling Sunset S07E08 Oppenheim Wine 1080p NF WEB DL DDP5 1 H 264 FLU… 2024-03-06 1.5 GB 20 36 TGxTV
Oppenheimer 2023 IMAX 2160p UHD HDR BluRay VVenC H 266 VVC AAC 5 1 RA… 2024-03-05 7.2 GB 41 40 RAV1NE
Mountains of Fire The Menace Meaning and Magic of Volcanoes by Clive … 2024-03-04 43.4 MB 24 16 zakareya
Oppenheimer 2023 ITA ENG 1080p x265 IMAX Paso77 2024-03-03 10.6 GB 110 17 paso77
Oppenheimer 2023 1080p DS4K HDR BluRay x265 10Bit HEVC DDP 5 1 Hi 2024-03-03 3.0 GB 171 25 MrX123
Uploader: Vyndros
Genre: Biography, Drama, History
Info Hash: 30113D3DF90084B56CCD4BB2FFAA112B86134556
Language: English
Description: General
Format : Matroska
Format version : Version 4 / Version 2
File size : 5.68 GiB
Duration : 3 h 0 min
Overall bit rate : 4 507 kb/s
Encoded date : UTC 2024-02-06 18:29:12
Writing application : mkvmerge v59.0.0 ('Shining Star') 64-bit
Writing library : libebml v1.4.2 + libmatroska v1.6.4
Video
ID : 1
Format : HEVC
Format/Info : High Efficiency Video Coding
Format profile : Main 10@L4@Main
Codec ID : V_MPEGH/ISO/HEVC
Duration : 3 h 0 min
Bit rate : 4 067 kb/s
Width : 1 920 pixels
Height : 1 080 pixels
Display aspect ratio : 16:9
Frame rate mode : Constant
Frame rate : 23.976 (24000/1001) FPS
Color space : YUV
Chroma subsampling : 4:2:0
Bit depth : 10 bits
Bits/(Pixel*Frame) : 0.082
Stream size : 5.12 GiB (90%)
Writing library : x265 3.5+107-a05d9f5f7:[Windows][MSVC 1937][64 bit] 10bit
Encoding settings : cpuid=1111039 / frame-threads=2 / numa-pools=4 / wpp / no-pmode / no-pme / no-psnr / ssim / log-level=2 / input-csp=1 / input-res=1920x1080 / interlace=0 / total-frames=259472 / level-idc=0 / high-tier=1 / uhd-bd=0 / ref=3 / no-allow-non-conformance / no-repeat-headers / annexb / no-aud / no-eob / no-eos / no-hrd / info / hash=0 / temporal-layers=0 / open-gop / min-keyint=23 / keyint=250 / gop-lookahead=0 / bframes=8 / b-adapt=2 / b-pyramid / bframe-bias=0 / rc-lookahead=80 / lookahead-slices=6 / scenecut=40 / no-hist-scenecut / radl=0 / no-splice / no-intra-refresh / ctu=64 / min-cu-size=8 / no-rect / no-amp / max-tu-size=32 / tu-inter-depth=1 / tu-intra-depth=1 / limit-tu=0 / rdoq-level=0 / dynamic-rd=0.00 / no-ssim-rd / signhide / no-tskip / nr-intra=0 / nr-inter=0 / no-constrained-intra / no-strong-intra-smoothing / max-merge=5 / limit-refs=1 / no-limit-modes / me=3 / subme=5 / merange=57 / temporal-mvp / no-frame-dup / no-hme / weightp / no-weightb / no-analyze-src-pics / deblock=0:0 / sao / no-sao-non-deblock / rd=3 / selective-sao=4 / early-skip / no-rskip / no-fast-intra / no-tskip-fast / no-cu-lossless / b-intra / no-splitrd-skip / rdpenalty=0 / psy-rd=2.00 / psy-rdoq=0.00 / no-rd-refine / no-lossless / cbqpoffs=0 / crqpoffs=0 / rc=crf / crf=18.0 / qcomp=0.60 / qpstep=4 / stats-write=0 / stats-read=0 / ipratio=1.40 / pbratio=1.30 / aq-mode=3 / aq-strength=1.00 / cutree / zone-count=0 / no-strict-cbr / qg-size=32 / no-rc-grain / qpmax=69 / qpmin=0 / no-const-vbv / sar=0 / overscan=0 / videoformat=5 / range=0 / colorprim=2 / transfer=2 / colormatrix=2 / chromaloc=0 / display-window=0 / cll=0,0 / min-luma=0 / max-luma=1023 / log2-max-poc-lsb=8 / vui-timing-info / vui-hrd-info / slices=1 / no-opt-qp-pps / no-opt-ref-list-length-pps / no-multi-pass-opt-rps / scenecut-bias=0.05 / no-opt-cu-delta-qp / no-aq-motion / no-hdr10 / no-hdr10-opt / no-dhdr10-opt / no-idr-recovery-sei / analysis-reuse-level=0 / analysis-save-reuse-level=0 / analysis-load-reuse-level=0 / scale-factor=0 / refine-intra=0 / refine-inter=0 / refine-mv=1 / refine-ctu-distortion=0 / no-limit-sao / ctu-info=0 / no-lowpass-dct / refine-analysis-type=0 / copy-pic=1 / max-ausize-factor=1.0 / no-dynamic-refine / no-single-sei / no-hevc-aq / no-svt / no-field / qp-adaptation-range=1.00 / scenecut-aware-qp=0conformance-window-offsets / right=0 / bottom=0 / decoder-max-rate=0 / no-vbv-live-multi-pass / no-mcstf / no-sbrc
Default : Yes
Forced : No
Audio
ID : 2
Format : AAC
Format/Info : Advanced Audio Codec
Format profile : LC
Codec ID : A_AAC
Duration : 3 h 0 min
Bit rate : 407 kb/s
Channel(s) : 6 channels
Channel positions : Front: L C R, Side: L R, LFE
Sampling rate : 48.0 kHz
Frame rate : 46.875 FPS (1024 spf)
Compression mode : Lossy
Delay relative to video : 20 ms
Stream size : 525 MiB (9%)
Title : Main Audio
Language : English
Default : Yes
Forced : Yes
Subtitle #1
ID : 3
Format : UTF-8
Codec ID : S_TEXT/UTF8
Codec ID/Info : UTF-8 Plain Text
Duration : 2 h 52 min
Bit rate : 84 b/s
Count of elements : 2908
Stream size : 107 KiB (0%)
Language : English
Default : No
Forced : No
Subtitle #2
ID : 4
Format : UTF-8
Codec ID : S_TEXT/UTF8
Codec ID/Info : UTF-8 Plain Text
Duration : 2 h 53 min
Bit rate : 89 b/s
Count of elements : 3107
Stream size : 114 KiB (0%)
Title : SDH
Language : English
Default : No
Forced : No
Subtitle #3
ID : 5
Format : PGS
Muxing mode : zlib
Codec ID : S_HDMV/PGS
Codec ID/Info : Picture based subtitle format used on BDs/HD-DVDs
Duration : 2 h 53 min
Bit rate : 61.7 kb/s
Count of elements : 6172
Stream size : 76.4 MiB (1%)
Title : SDH / Positional
Language : English
Default : No
Forced : No
Category: Movies
Size: 5.7 GB
Added: Feb. 7, 2024, 3 a.m.
Peers: Seeders: 36, Leechers: 49,
Multiple Quality Available: M.Q.A
IMDB tt15398776
IMDB Title Oppenheimer
IMDB Genre Biography, Drama, History,
IMDB Runtime 3:00:00 Hours
IMDB Rating 8.4
Director Christopher Nolan
IMDB cast Cillian Murphy, Emily Blunt, Matt Damon
IMDB plot The story of American scientist J. Robert Oppenheimer and his role in the development of the atomic bomb.

Comment below