:Search:

Oppenheimer 2023 1080p Blu Ray DD5 1 x265 ViGoR

Torrent:
Thumbnail:
Trailer:
Similar Posts:
Name Uploaded Size Se Le Upl. by
Oppenheimer 2023 1080p BluRay x265 HEVC AAC 5 1 Gypsy 2024-04-15 2.5 GB 44 40 Gypsy
Oppenheimer 1080p ITA x264 MaDHeX MaDTiA_ 2024-03-18 3.9 GB 2 4 madhex
Oppenheimer 2023 Eng Fre Ger Ita Spa Cze Pol 2160p BluRay Remux HDR H… 2024-03-13 90.2 GB 342 347 SGF
Oppenheimer 2023 1080p BluRay IMAX ENG LATINO CASTELLANO DD5 1 H265 B… 2024-03-09 7.6 GB 5 806 Freddy1714
In the Shadow of the Bomb Oppenheimer Bethe and the Moral Responsibil… 2024-03-08 2.2 MB 16 18 zakareya
Selling Sunset S07E08 Oppenheim Wine 1080p NF WEB DL DDP5 1 H 264 FLU… 2024-03-06 1.5 GB 20 36 TGxTV
Oppenheimer 2023 IMAX 2160p UHD HDR BluRay VVenC H 266 VVC AAC 5 1 RA… 2024-03-05 7.2 GB 41 40 RAV1NE
Mountains of Fire The Menace Meaning and Magic of Volcanoes by Clive … 2024-03-04 43.4 MB 24 16 zakareya
Oppenheimer 2023 ITA ENG 1080p x265 IMAX Paso77 2024-03-03 10.6 GB 110 17 paso77
Oppenheimer 2023 1080p DS4K HDR BluRay x265 10Bit HEVC DDP 5 1 Hi 2024-03-03 3.0 GB 171 25 MrX123
Uploader: xCLuMsYx
Downloads: 2942
Type: h.264/x264
Genre: Drama, History
Images:
Oppenheimer 2023 1080p Blu Ray DD5 1 x265 ViGoR
Oppenheimer 2023 1080p Blu Ray DD5 1 x265 ViGoR
Oppenheimer 2023 1080p Blu Ray DD5 1 x265 ViGoR
Oppenheimer 2023 1080p Blu Ray DD5 1 x265 ViGoR
Oppenheimer 2023 1080p Blu Ray DD5 1 x265 ViGoR
Oppenheimer 2023 1080p Blu Ray DD5 1 x265 ViGoR
Oppenheimer 2023 1080p Blu Ray DD5 1 x265 ViGoR
Oppenheimer 2023 1080p Blu Ray DD5 1 x265 ViGoR
Oppenheimer 2023 1080p Blu Ray DD5 1 x265 ViGoR
Oppenheimer 2023 1080p Blu Ray DD5 1 x265 ViGoR
Oppenheimer 2023 1080p Blu Ray DD5 1 x265 ViGoR
Oppenheimer 2023 1080p Blu Ray DD5 1 x265 ViGoR
Oppenheimer 2023 1080p Blu Ray DD5 1 x265 ViGoR
Oppenheimer 2023 1080p Blu Ray DD5 1 x265 ViGoR
Info Hash: DEA8BFD4445C7EA09722D0BC4A67C91C973904D3
Language: English
Description: General
Unique ID : 45238942327047041728864088272812711410 (0x2208B40FECF9DCFBE8EEB9C9CE951DF2)
Complete name : C:\TorrentBD\Oppenheimer.2023.1080p.BluRay.DD5.1.x265-ViGoR.mkv
Format : Matroska
Format version : Version 4
File size : 6.17 GiB
Duration : 3 h 0 min
Overall bit rate : 4 897 kb/s
Frame rate : 23.976 FPS
Movie name : Oppenheimer.2023.1080p.BluRay.DD5.1.x265-ViGoR
Encoded date : 2023-11-10 04:28:35 UTC
Writing application : mkvmerge v79.0 ('Funeral Pyres') 64-bit
Writing library : libebml v1.4.4 + libmatroska v1.7.1
Video
ID : 1
Format : HEVC
Format/Info : High Efficiency Video Coding
Format profile : Main
[email protected]
@High
Codec ID : V_MPEGH/ISO/HEVC
Duration : 3 h 0 min
Bit rate : 4 447 kb/s
Width : 1 920 pixels
Height : 1 080 pixels
Display aspect ratio : 16:9
Frame rate mode : Constant
Frame rate : 23.976 (24000/1001) FPS
Color space : YUV
Chroma subsampling : 4:2:0
Bit depth : 10 bits
Bits/(Pixel*Frame) : 0.089
Stream size : 5.60 GiB (91%)
Writing library : x265 3.5+20-4c4aee0bc:[DJATOM's Mod][Windows][GCC 10.2.1][64 bit] 10bit
Encoding settings : cpuid=1111039 / frame-threads=4 / numa-pools=16 / wpp / no-pmode / no-pme / no-psnr / no-ssim / log-level=2 / input-csp=1 / input-res=1920x1080 / interlace=0 / total-frames=259472 / level-idc=41 / high-tier=1 / uhd-bd=0 / ref=5 / no-allow-non-conformance / no-repeat-headers / annexb / no-aud / no-hrd / info / hash=0 / no-temporal-layers / open-gop / min-keyint=23 / keyint=250 / gop-lookahead=0 / bframes=16 / b-adapt=2 / b-pyramid / bframe-bias=0 / rc-lookahead=240 / lookahead-slices=4 / scenecut=40 / hist-scenecut=0 / radl=0 / no-splice / no-intra-refresh / ctu=64 / min-cu-size=8 / rect / no-amp / max-tu-size=32 / tu-inter-depth=1 / tu-intra-depth=1 / limit-tu=0 / rdoq-level=2 / dynamic-rd=0.00 / no-ssim-rd / signhide / no-tskip / nr-intra=0 / nr-inter=0 / no-constrained-intra / strong-intra-smoothing / max-merge=3 / limit-refs=3 / limit-modes / me=3 / subme=5 / merange=57 / temporal-mvp / no-frame-dup / no-hme / weightp / no-weightb / no-analyze-src-pics / deblock=-1:-1 / no-sao / no-sao-non-deblock / rd=4 / selective-sao=0 / no-early-skip / rskip / no-fast-intra / no-tskip-fast / no-cu-lossless / no-b-intra / no-splitrd-skip / rdpenalty=0 / psy-rd=1.60 / psy-rdoq=2.20 / no-rd-refine / no-lossless / cbqpoffs=0 / crqpoffs=0 / rc=crf / crf=20.1 / qcomp=0.64 / qpstep=4 / stats-write=0 / stats-read=0 / vbv-maxrate=50000 / vbv-bufsize=50000 / vbv-init=0.9 / min-vbv-fullness=50.0 / max-vbv-fullness=80.0 / crf-max=0.0 / crf-min=0.0 / ipratio=1.40 / pbratio=1.30 / aq-mode=3 / aq-strength=0.89 / cutree / zone-count=0 / no-strict-cbr / qg-size=32 / no-rc-grain / qpmax=69 / qpmin=0 / no-const-vbv / sar=1 / overscan=0 / videoformat=5 / range=0 / colorprim=1 / transfer=1 / colormatrix=1 / chromaloc=0 / display-window=0 / cll=0,0 / min-luma=0 / max-luma=1023 / log2-max-poc-lsb=8 / vui-timing-info / vui-hrd-info / slices=1 / no-opt-qp-pps / no-opt-ref-list-length-pps / no-multi-pass-opt-rps / scenecut-bias=0.05 / hist-threshold=0.03 / no-opt-cu-delta-qp / no-aq-motion / no-hdr10 / no-hdr10-opt / no-dhdr10-opt / no-idr-recovery-sei / analysis-reuse-level=0 / analysis-save-reuse-level=0 / analysis-load-reuse-level=0 / scale-factor=0 / refine-intra=0 / refine-inter=0 / refine-mv=1 / refine-ctu-distortion=0 / no-limit-sao / ctu-info=0 / no-lowpass-dct / refine-analysis-type=0 / copy-pic=1 / max-ausize-factor=1.0 / no-dynamic-refine / no-single-sei / no-hevc-aq / no-svt / no-field / qp-adaptation-range=1.00 / scenecut-aware-qp=0conformance-window-offsets / right=0 / bottom=0 / decoder-max-rate=0 / no-vbv-live-multi-pass
Language : English
Default : Yes
Forced : No
Color range : Limited
Color primaries : BT.709
Transfer characteristics : BT.709
Matrix coefficients : BT.709
Audio
ID : 2
Format : AC-3
Format/Info : Audio Coding 3
Commercial name : Dolby Digital
Codec ID : A_AC3
Duration : 3 h 0 min
Bit rate mode : Constant
Bit rate : 448 kb/s
Channel(s) : 6 channels
Channel layout : L R C LFE Ls Rs
Sampling rate : 48.0 kHz
Frame rate : 31.250 FPS (1536 SPF)
Compression mode : Lossy
Stream size : 578 MiB (9%)
Language : English
Service kind : Complete Main
Default : Yes
Forced : No
Text #1
ID : 3
Format : UTF-8
Codec ID : S_TEXT/UTF8
Codec ID/Info : UTF-8 Plain Text
Duration : 2 h 52 min
Bit rate : 84 b/s
Frame rate : 0.282 FPS
Count of elements : 2908
Stream size : 107 KiB (0%)
Language : English
Default : Yes
Forced : No
Text #2
ID : 4
Format : UTF-8
Codec ID : S_TEXT/UTF8
Codec ID/Info : UTF-8 Plain Text
Duration : 2 h 53 min
Bit rate : 89 b/s
Frame rate : 0.299 FPS
Count of elements : 3107
Stream size : 114 KiB (0%)
Title : SDH
Language : English
Default : No
Forced : No
Menu
00:00:00.000 : en:Chapter 1
00:07:23.526 : en:Chapter 2
00:16:36.078 : en:Chapter 3
00:27:23.976 : en:Chapter 4
00:36:01.534 : en:Chapter 5
00:42:51.652 : en:Chapter 6
00:52:31.607 : en:Chapter 7
00:59:56.593 : en:Chapter 8
01:10:53.541 : en:Chapter 9
01:17:58.215 : en:Chapter 10
01:24:14.341 : en:Chapter 11
01:36:07.011 : en:Chapter 12
01:43:06.931 : en:Chapter 13
01:51:19.590 : en:Chapter 14
02:00:18.378 : en:Chapter 15
02:09:02.193 : en:Chapter 16
02:17:08.637 : en:Chapter 17
02:32:04.949 : en:Chapter 18
02:47:40.634 : en:Chapter 19
02:54:12.442 : en:Chapter 20
ReportBy : MediaInfoLib - v23.10
CreatedOn : UTC 2023-11-12 11:28:43
Category: Movies
Size: 6.2 GB
Added: Nov. 13, 2023, 4:27 a.m.
Peers: Seeders: 155, Leechers: 33,
Files:
  1. Oppenheimer.2023.1080p.BluRay.DD5.1.x265-ViGoR.mkv 6.2 GB
Multiple Quality Available: M.Q.A
IMDB tt15398776
IMDB Title Oppenheimer
IMDB Genre Biography, Drama, History,
IMDB Runtime 3:00:00 Hours
IMDB Rating 8.4
Director Christopher Nolan
IMDB cast Cillian Murphy, Emily Blunt, Matt Damon
IMDB plot The story of American scientist J. Robert Oppenheimer and his role in the development of the atomic bomb.

Comment below