:Search:

Oppenheimer 2023 2160p HDR bluray WMAN LorD

Torrent:
Thumbnail:
Trailer:
Similar Posts:
Name Uploaded Size Se Le Upl. by
Oppenheimer 2023 1080p BluRay x265 HEVC AAC 5 1 Gypsy 2024-04-15 2.5 GB 44 40 Gypsy
Oppenheimer 1080p ITA x264 MaDHeX MaDTiA_ 2024-03-18 3.9 GB 2 4 madhex
Oppenheimer 2023 Eng Fre Ger Ita Spa Cze Pol 2160p BluRay Remux HDR H… 2024-03-13 90.2 GB 342 347 SGF
Oppenheimer 2023 1080p BluRay IMAX ENG LATINO CASTELLANO DD5 1 H265 B… 2024-03-09 7.6 GB 5 806 Freddy1714
In the Shadow of the Bomb Oppenheimer Bethe and the Moral Responsibil… 2024-03-08 2.2 MB 16 18 zakareya
Selling Sunset S07E08 Oppenheim Wine 1080p NF WEB DL DDP5 1 H 264 FLU… 2024-03-06 1.5 GB 20 36 TGxTV
Oppenheimer 2023 IMAX 2160p UHD HDR BluRay VVenC H 266 VVC AAC 5 1 RA… 2024-03-05 7.2 GB 41 40 RAV1NE
Mountains of Fire The Menace Meaning and Magic of Volcanoes by Clive … 2024-03-04 43.4 MB 24 16 zakareya
Oppenheimer 2023 ITA ENG 1080p x265 IMAX Paso77 2024-03-03 10.6 GB 110 17 paso77
Oppenheimer 2023 1080p DS4K HDR BluRay x265 10Bit HEVC DDP 5 1 Hi 2024-03-03 3.0 GB 171 25 MrX123
Uploader: wanderman
Downloads: 15966
Genre: Biography, Drama, History
Info Hash: E486EA6D549E2E60CFF4F0F1194C0A65694BD123
Language: English
Description: General
Unique ID : 108536605060617920924797166025087419245 (0x51A763C848A3F9AAE449FB179D48836D)
Complete name : Oppenheimer.2023.2160p.UHD.HDR.BluRay.x265.10bit.DD5.1.[WMAN-LorD].mkv
Format : Matroska
Format version : Version 4
File size : 4.68 GiB
Duration : 3 h 0 min
Overall bit rate : 3 711 kb/s
Frame rate : 23.976 FPS
Movie name : Oppenheimer (2023) [WMAN-LorD]
Encoded date : 2023-11-14 00:14:44 UTC
Writing application : mkvmerge v80.0 ('Roundabout') 64-bit
Writing library : libebml v1.4.4 + libmatroska v1.7.1
Cover : Yes
Attachments : cover.jpg
Video
ID : 1
Format : HEVC
Format/Info : High Efficiency Video Coding
Format profile : Main 10@L6@Main
HDR format : SMPTE ST 2086, HDR10 compatible
Codec ID : V_MPEGH/ISO/HEVC
Duration : 3 h 0 min
Bit rate : 2 798 kb/s
Width : 3 840 pixels
Height : 2 160 pixels
Display aspect ratio : 16:9
Frame rate mode : Constant
Frame rate : 23.976 (24000/1001) FPS
Color space : YUV
Chroma subsampling : 4:2:0 (Type 2)
Bit depth : 10 bits
Bits/(Pixel*Frame) : 0.014
Stream size : 3.52 GiB (75%)
Title : [WMAN-LorD]
Language : English
Default : Yes
Forced : No
Color range : Limited
Color primaries : BT.2020
Transfer characteristics : PQ
Matrix coefficients : BT.2020 non-constant
Mastering display color pri : Display P3
Mastering display luminance : min: 0.0050 cd/m2, max: 1000 cd/m2
Maximum Content Light Level : 186 cd/m2
Maximum Frame-Average Light : 147 cd/m2
Audio
ID : 2
Format : E-AC-3
Format/Info : Enhanced AC-3
Commercial name : Dolby Digital Plus
Codec ID : A_EAC3
Duration : 3 h 0 min
Bit rate mode : Constant
Bit rate : 640 kb/s
Channel(s) : 6 channels
Channel layout : L R C LFE Ls Rs
Sampling rate : 48.0 kHz
Frame rate : 31.250 FPS (1536 SPF)
Compression mode : Lossy
Stream size : 826 MiB (17%)
Title : Dolby Digital Plus / 5.1 / 48 kHz / 640 kbps
Language : English
Service kind : Complete Main
Default : Yes
Forced : No
Text #1
ID : 3
Format : UTF-8
Codec ID : S_TEXT/UTF8
Codec ID/Info : UTF-8 Plain Text
Duration : 2 h 52 min
Bit rate : 91 b/s
Frame rate : 0.320 FPS
Count of elements : 3305
Stream size : 116 KiB (0%)
Title : Portuguese Brazil
Language : Portuguese (BR)
Default : Yes
Forced : Yes
Text #2
ID : 4
ID in the original source m : 4768 (0x12A0)
Format : PGS
Muxing mode : zlib
Codec ID : S_HDMV/PGS
Codec ID/Info : Picture based subtitle format used on BDs/HD-DVDs
Duration : 2 h 53 min
Bit rate : 61.7 kb/s
Frame rate : 0.594 FPS
Count of elements : 6172
Stream size : 76.4 MiB (2%)
Language : English
Default : No
Forced : No
Original source medium : Blu-ray
Text #3
ID : 5
ID in the original source m : 4769 (0x12A1)
Format : PGS
Muxing mode : zlib
Codec ID : S_HDMV/PGS
Codec ID/Info : Picture based subtitle format used on BDs/HD-DVDs
Duration : 2 h 59 min
Bit rate : 53.6 kb/s
Frame rate : 0.505 FPS
Count of elements : 5434
Stream size : 68.7 MiB (1%)
Language : Spanish
Default : No
Forced : No
Original source medium : Blu-ray
Text #4
ID : 6
ID in the original source m : 4770 (0x12A2)
Format : PGS
Muxing mode : zlib
Codec ID : S_HDMV/PGS
Codec ID/Info : Picture based subtitle format used on BDs/HD-DVDs
Duration : 2 h 59 min
Bit rate : 49.2 kb/s
Frame rate : 0.387 FPS
Count of elements : 4160
Stream size : 63.1 MiB (1%)
Language : Danish
Default : No
Forced : No
Original source medium : Blu-ray
Text #5
ID : 7
ID in the original source m : 4771 (0x12A3)
Format : PGS
Muxing mode : zlib
Codec ID : S_HDMV/PGS
Codec ID/Info : Picture based subtitle format used on BDs/HD-DVDs
Duration : 2 h 59 min
Bit rate : 50.2 kb/s
Frame rate : 0.591 FPS
Count of elements : 6356
Stream size : 64.4 MiB (1%)
Language : Finnish
Default : No
Forced : No
Original source medium : Blu-ray
Text #6
ID : 8
ID in the original source m : 4772 (0x12A4)
Format : PGS
Muxing mode : zlib
Codec ID : S_HDMV/PGS
Codec ID/Info : Picture based subtitle format used on BDs/HD-DVDs
Duration : 2 h 59 min
Bit rate : 48.0 kb/s
Frame rate : 0.454 FPS
Count of elements : 4884
Stream size : 61.5 MiB (1%)
Language : Norwegian
Default : No
Forced : No
Original source medium : Blu-ray
Text #7
ID : 9
ID in the original source m : 4773 (0x12A5)
Format : PGS
Muxing mode : zlib
Codec ID : S_HDMV/PGS
Codec ID/Info : Picture based subtitle format used on BDs/HD-DVDs
Duration : 2 h 59 min
Bit rate : 49.4 kb/s
Frame rate : 0.546 FPS
Count of elements : 5880
Stream size : 63.4 MiB (1%)
Language : Czech
Default : No
Forced : No
Original source medium : Blu-ray
Text #8
ID : 10
ID in the original source m : 4774 (0x12A6)
Format : PGS
Muxing mode : zlib
Codec ID : S_HDMV/PGS
Codec ID/Info : Picture based subtitle format used on BDs/HD-DVDs
Duration : 2 h 59 min
Bit rate : 48.5 kb/s
Frame rate : 0.535 FPS
Count of elements : 5754
Stream size : 62.3 MiB (1%)
Language : Polish
Default : No
Forced : No
Original source medium : Blu-ray
Text #9
ID : 11
ID in the original source m : 4775 (0x12A7)
Format : PGS
Muxing mode : zlib
Codec ID : S_HDMV/PGS
Codec ID/Info : Picture based subtitle format used on BDs/HD-DVDs
Duration : 2 h 59 min
Bit rate : 44.2 kb/s
Frame rate : 0.549 FPS
Count of elements : 5904
Stream size : 56.7 MiB (1%)
Language : Chinese
Default : No
Forced : No
Original source medium : Blu-ray
Text #10
ID : 12
ID in the original source m : 4776 (0x12A8)
Format : PGS
Muxing mode : zlib
Codec ID : S_HDMV/PGS
Codec ID/Info : Picture based subtitle format used on BDs/HD-DVDs
Duration : 2 h 59 min
Bit rate : 41.4 kb/s
Frame rate : 0.557 FPS
Count of elements : 5992
Stream size : 53.2 MiB (1%)
Language : Chinese
Default : No
Forced : No
Original source medium : Blu-ray
Text #11
ID : 13
ID in the original source m : 4777 (0x12A9)
Format : PGS
Muxing mode : zlib
Codec ID : S_HDMV/PGS
Codec ID/Info : Picture based subtitle format used on BDs/HD-DVDs
Duration : 2 h 59 min
Bit rate : 37.3 kb/s
Frame rate : 0.543 FPS
Count of elements : 5868
Stream size : 48.1 MiB (1%)
Language : Korean
Default : No
Forced : No
Original source medium : Blu-ray
Text #12
ID : 14
ID in the original source m : 4778 (0x12AA)
Format : PGS
Muxing mode : zlib
Codec ID : S_HDMV/PGS
Codec ID/Info : Picture based subtitle format used on BDs/HD-DVDs
Duration : 2 h 59 min
Bit rate : 261 b/s
Frame rate : 0.002 FPS
Count of elements : 24
Stream size : 344 KiB (0%)
Language : Spanish
Default : No
Forced : No
Original source medium : Blu-ray
Text #13
ID : 15
ID in the original source m : 4779 (0x12AB)
Format : PGS
Muxing mode : zlib
Codec ID : S_HDMV/PGS
Codec ID/Info : Picture based subtitle format used on BDs/HD-DVDs
Duration : 2 h 59 min
Bit rate : 392 b/s
Frame rate : 0.005 FPS
Count of elements : 52
Stream size : 515 KiB (0%)
Language : Czech
Default : No
Forced : No
Original source medium : Blu-ray
Text #14
ID : 16
ID in the original source m : 4780 (0x12AC)
Format : PGS
Muxing mode : zlib
Codec ID : S_HDMV/PGS
Codec ID/Info : Picture based subtitle format used on BDs/HD-DVDs
Duration : 2 h 59 min
Bit rate : 45.7 kb/s
Frame rate : 0.375 FPS
Count of elements : 4032
Stream size : 58.7 MiB (1%)
Language : Swedish
Default : No
Forced : No
Original source medium : Blu-ray
Text #15
ID : 17
ID in the original source m : 4781 (0x12AD)
Format : PGS
Muxing mode : zlib
Codec ID : S_HDMV/PGS
Codec ID/Info : Picture based subtitle format used on BDs/HD-DVDs
Duration : 2 h 30 min
Bit rate : 121 b/s
Frame rate : 0.002 FPS
Count of elements : 14
Stream size : 134 KiB (0%)
Language : Polish
Default : No
Forced : No
Original source medium : Blu-ray
Menu
00:00:00.000 : en:Chapter 01
00:07:23.526 : en:Chapter 02
00:16:36.370 : en:Chapter 03
00:27:23.975 : en:Chapter 04
00:36:01.534 : en:Chapter 05
00:42:51.569 : en:Chapter 06
00:52:31.606 : en:Chapter 07
00:59:56.217 : en:Chapter 08
01:10:53.749 : en:Chapter 09
01:17:57.839 : en:Chapter 10
01:24:14.340 : en:Chapter 11
01:36:06.927 : en:Chapter 12
01:43:06.555 : en:Chapter 13
01:51:19.297 : en:Chapter 14
02:00:18.169 : en:Chapter 15
02:09:02.192 : en:Chapter 16
02:17:08.303 : en:Chapter 17
02:32:04.824 : en:Chapter 18
02:47:40.592 : en:Chapter 19
02:54:12.191 : en:Chapter 20
Category: Movies
Size: 4.7 GB
Added: Nov. 14, 2023, 12:50 a.m.
Peers: Seeders: 1445, Leechers: 1003,
Files:
  1. Oppenheimer.2023.2160p.UHD.HDR.BluRay.x265.10bit.DD5.1.[WMAN-LorD].mkv 4.7 GB
Multiple Quality Available: M.Q.A
IMDB tt15398776
IMDB Title Oppenheimer
IMDB Genre Biography, Drama, History,
IMDB Runtime 3:00:00 Hours
IMDB Rating 8.4
Director Christopher Nolan
IMDB cast Cillian Murphy, Emily Blunt, Matt Damon
IMDB plot The story of American scientist J. Robert Oppenheimer and his role in the development of the atomic bomb.

Comment below