:Search:

Oppenheimer 2023 1080p MA WEB DL DUAL DD 5 1 H 264 TheBiscuitMan

Torrent:
Thumbnail:
Trailer:
Similar Posts:
Name Uploaded Size Se Le Upl. by
Oppenheimer 2023 1080p BluRay x265 HEVC AAC 5 1 Gypsy 2024-04-15 2.5 GB 44 40 Gypsy
Oppenheimer 1080p ITA x264 MaDHeX MaDTiA_ 2024-03-18 3.9 GB 2 4 madhex
Oppenheimer 2023 Eng Fre Ger Ita Spa Cze Pol 2160p BluRay Remux HDR H… 2024-03-13 90.2 GB 342 347 SGF
Oppenheimer 2023 1080p BluRay IMAX ENG LATINO CASTELLANO DD5 1 H265 B… 2024-03-09 7.6 GB 5 806 Freddy1714
In the Shadow of the Bomb Oppenheimer Bethe and the Moral Responsibil… 2024-03-08 2.2 MB 16 18 zakareya
Selling Sunset S07E08 Oppenheim Wine 1080p NF WEB DL DDP5 1 H 264 FLU… 2024-03-06 1.5 GB 20 36 TGxTV
Oppenheimer 2023 IMAX 2160p UHD HDR BluRay VVenC H 266 VVC AAC 5 1 RA… 2024-03-05 7.2 GB 41 40 RAV1NE
Mountains of Fire The Menace Meaning and Magic of Volcanoes by Clive … 2024-03-04 43.4 MB 24 16 zakareya
Oppenheimer 2023 ITA ENG 1080p x265 IMAX Paso77 2024-03-03 10.6 GB 110 17 paso77
Oppenheimer 2023 1080p DS4K HDR BluRay x265 10Bit HEVC DDP 5 1 Hi 2024-03-03 3.0 GB 171 25 MrX123
Uploader: xCLuMsYx
Downloads: 8
Type: HD
Genre: Drama, History
Images:
Oppenheimer 2023 1080p MA WEB DL DUAL DD 5 1 H 264 TheBiscuitMan
Oppenheimer 2023 1080p MA WEB DL DUAL DD 5 1 H 264 TheBiscuitMan
Oppenheimer 2023 1080p MA WEB DL DUAL DD 5 1 H 264 TheBiscuitMan
Oppenheimer 2023 1080p MA WEB DL DUAL DD 5 1 H 264 TheBiscuitMan
Oppenheimer 2023 1080p MA WEB DL DUAL DD 5 1 H 264 TheBiscuitMan
Oppenheimer 2023 1080p MA WEB DL DUAL DD 5 1 H 264 TheBiscuitMan
Oppenheimer 2023 1080p MA WEB DL DUAL DD 5 1 H 264 TheBiscuitMan
Oppenheimer 2023 1080p MA WEB DL DUAL DD 5 1 H 264 TheBiscuitMan
Oppenheimer 2023 1080p MA WEB DL DUAL DD 5 1 H 264 TheBiscuitMan
Oppenheimer 2023 1080p MA WEB DL DUAL DD 5 1 H 264 TheBiscuitMan
Oppenheimer 2023 1080p MA WEB DL DUAL DD 5 1 H 264 TheBiscuitMan
Oppenheimer 2023 1080p MA WEB DL DUAL DD 5 1 H 264 TheBiscuitMan
Oppenheimer 2023 1080p MA WEB DL DUAL DD 5 1 H 264 TheBiscuitMan
Oppenheimer 2023 1080p MA WEB DL DUAL DD 5 1 H 264 TheBiscuitMan
Info Hash: 85131D67FF609F6CA6976533EB1F219CB5515420
Language: Hindi
Description: General
Unique ID : 155725083806260112075717758585153999417 (0x75278F693B7DCF592DCCB0E382E35239)
Complete name : Oppenheimer.2023.1080p.MA.WEB-DL.DUAL.DD+5.1.H.264-TheBiscuitMan.mkv
Format : Matroska
Format version : Version 4
File size : 19.8 GiB
Duration : 3 h 0 min
Overall bit rate : 15.7 Mb/s
Frame rate : 23.976 FPS
Writing application : mkvmerge v80.0 ('Roundabout') 64-bit
Writing library : libebml v1.4.4 + libmatroska v1.7.1
IMDB : tt15398776
TMDB : movie/872585
Video
ID : 1
Format : AVC
Format/Info : Advanced Video Codec
Format profile :
[email protected]
Format settings : CABAC / 4 Ref Frames
Format settings, CABAC : Yes
Format settings, Reference frames : 4 frames
Codec ID : V_MPEG4/ISO/AVC
Duration : 3 h 0 min
Bit rate mode : Constant
Bit rate : 14.2 Mb/s
Width : 1 920 pixels
Height : 1 080 pixels
Display aspect ratio : 16:9
Frame rate mode : Constant
Frame rate : 23.976 (24000/1001) FPS
Color space : YUV
Chroma subsampling : 4:2:0
Bit depth : 8 bits
Scan type : Progressive
Bits/(Pixel*Frame) : 0.286
Stream size : 17.8 GiB (90%)
Default : Yes
Forced : No
Color range : Limited
Color primaries : BT.709
Transfer characteristics : BT.709
Matrix coefficients : BT.709
Audio #1
ID : 2
Format : E-AC-3
Format/Info : Enhanced AC-3
Commercial name : Dolby Digital Plus
Codec ID : A_EAC3
Duration : 3 h 0 min
Bit rate mode : Constant
Bit rate : 640 kb/s
Channel(s) : 6 channels
Channel layout : L R C LFE Ls Rs
Sampling rate : 48.0 kHz
Frame rate : 31.250 FPS (1536 SPF)
Compression mode : Lossy
Delay relative to video : 976 ms
Stream size : 826 MiB (4%)
Language : English
Service kind : Complete Main
Default : Yes
Forced : No
Audio #2
ID : 3
Format : E-AC-3
Format/Info : Enhanced AC-3
Commercial name : Dolby Digital Plus
Codec ID : A_EAC3
Duration : 3 h 0 min
Bit rate mode : Constant
Bit rate : 640 kb/s
Channel(s) : 6 channels
Channel layout : L R C LFE Ls Rs
Sampling rate : 48.0 kHz
Frame rate : 31.250 FPS (1536 SPF)
Compression mode : Lossy
Delay relative to video : 32 ms
Stream size : 826 MiB (4%)
Language : Hindi
Service kind : Complete Main
Default : No
Forced : No
Text #1
ID : 4
Format : PGS
Muxing mode : zlib
Codec ID : S_HDMV/PGS
Codec ID/Info : Picture based subtitle format used on BDs/HD-DVDs
Duration : 2 h 59 min
Bit rate : 49.4 kb/s
Frame rate : 0.546 FPS
Count of elements : 5880
Stream size : 63.4 MiB (0%)
Title : (From Blu-Ray)
Language : Czech
Default : No
Forced : No
Text #2
ID : 5
Format : PGS
Muxing mode : zlib
Codec ID : S_HDMV/PGS
Codec ID/Info : Picture based subtitle format used on BDs/HD-DVDs
Duration : 2 h 59 min
Bit rate : 49.2 kb/s
Frame rate : 0.387 FPS
Count of elements : 4160
Stream size : 63.1 MiB (0%)
Title : (From Blu-Ray)
Language : Danish
Default : No
Forced : No
Text #3
ID : 6
Format : UTF-8
Codec ID : S_TEXT/UTF8
Codec ID/Info : UTF-8 Plain Text
Duration : 2 h 52 min
Bit rate : 83 b/s
Frame rate : 0.279 FPS
Count of elements : 2880
Stream size : 105 KiB (0%)
Language : English
Default : No
Forced : No
Text #4
ID : 7
Format : UTF-8
Codec ID : S_TEXT/UTF8
Codec ID/Info : UTF-8 Plain Text
Duration : 2 h 53 min
Bit rate : 88 b/s
Frame rate : 0.299 FPS
Count of elements : 3107
Stream size : 112 KiB (0%)
Title : SDH
Language : English
Default : Yes
Forced : No
Text #5
ID : 8
Format : UTF-8
Codec ID : S_TEXT/UTF8
Codec ID/Info : UTF-8 Plain Text
Duration : 2 h 53 min
Bit rate : 88 b/s
Frame rate : 0.296 FPS
Count of elements : 3079
Stream size : 112 KiB (0%)
Title : SDH
Language : English (BR)
Default : No
Forced : No
Text #6
ID : 9
Format : PGS
Muxing mode : zlib
Codec ID : S_HDMV/PGS
Codec ID/Info : Picture based subtitle format used on BDs/HD-DVDs
Duration : 2 h 53 min
Bit rate : 61.7 kb/s
Frame rate : 0.594 FPS
Count of elements : 6172
Stream size : 76.4 MiB (0%)
Title : SDH (From Blu-Ray)
Language : English
Default : No
Forced : No
Text #7
ID : 10
Format : PGS
Muxing mode : zlib
Codec ID : S_HDMV/PGS
Codec ID/Info : Picture based subtitle format used on BDs/HD-DVDs
Duration : 2 h 59 min
Bit rate : 50.2 kb/s
Frame rate : 0.591 FPS
Count of elements : 6356
Stream size : 64.4 MiB (0%)
Title : (From Blu-Ray)
Language : Finnish
Default : No
Forced : No
Text #8
ID : 11
Format : UTF-8
Codec ID : S_TEXT/UTF8
Codec ID/Info : UTF-8 Plain Text
Duration : 2 h 59 min
Bit rate : 80 b/s
Frame rate : 0.274 FPS
Count of elements : 2943
Stream size : 106 KiB (0%)
Title : Canadian
Language : French (CA)
Default : No
Forced : No
Text #9
ID : 12
Format : PGS
Muxing mode : zlib
Codec ID : S_HDMV/PGS
Codec ID/Info : Picture based subtitle format used on BDs/HD-DVDs
Duration : 2 h 59 min
Bit rate : 37.3 kb/s
Frame rate : 0.543 FPS
Count of elements : 5868
Stream size : 48.1 MiB (0%)
Title : (From Blu-Ray)
Language : Korean
Default : No
Forced : No
Text #10
ID : 13
Format : PGS
Muxing mode : zlib
Codec ID : S_HDMV/PGS
Codec ID/Info : Picture based subtitle format used on BDs/HD-DVDs
Duration : 2 h 59 min
Bit rate : 48.0 kb/s
Frame rate : 0.454 FPS
Count of elements : 4884
Stream size : 61.5 MiB (0%)
Title : (From Blu-Ray)
Language : Norwegian
Default : No
Forced : No
Text #11
ID : 14
Format : PGS
Muxing mode : zlib
Codec ID : S_HDMV/PGS
Codec ID/Info : Picture based subtitle format used on BDs/HD-DVDs
Duration : 2 h 59 min
Bit rate : 48.5 kb/s
Frame rate : 0.535 FPS
Count of elements : 5754
Stream size : 62.3 MiB (0%)
Title : (From Blu-Ray)
Language : Polish
Default : No
Forced : No
Text #12
ID : 15
Format : PGS
Muxing mode : zlib
Codec ID : S_HDMV/PGS
Codec ID/Info : Picture based subtitle format used on BDs/HD-DVDs
Duration : 2 h 59 min
Bit rate : 53.6 kb/s
Frame rate : 0.505 FPS
Count of elements : 5434
Stream size : 68.7 MiB (0%)
Title : Castilian (From Blu-Ray)
Language : Spanish
Default : No
Forced : No
Text #13
ID : 16
Format : UTF-8
Codec ID : S_TEXT/UTF8
Codec ID/Info : UTF-8 Plain Text
Duration : 2 h 59 min
Bit rate : 81 b/s
Frame rate : 0.274 FPS
Count of elements : 2945
Stream size : 107 KiB (0%)
Title : Latin American
Language : Spanish (Latin America)
Default : No
Forced : No
Text #14
ID : 17
Format : PGS
Muxing mode : zlib
Codec ID : S_HDMV/PGS
Codec ID/Info : Picture based subtitle format used on BDs/HD-DVDs
Duration : 2 h 59 min
Bit rate : 45.7 kb/s
Frame rate : 0.375 FPS
Count of elements : 4032
Stream size : 58.7 MiB (0%)
Title : (From Blu-Ray)
Language : Swedish
Default : No
Forced : No
Text #15
ID : 18
Format : PGS
Muxing mode : zlib
Codec ID : S_HDMV/PGS
Codec ID/Info : Picture based subtitle format used on BDs/HD-DVDs
Duration : 2 h 59 min
Bit rate : 44.2 kb/s
Frame rate : 0.549 FPS
Count of elements : 5904
Stream size : 56.7 MiB (0%)
Title : Cantonese (From Blu-Ray)
Language : Chinese
Default : No
Forced : No
Text #16
ID : 19
Format : PGS
Muxing mode : zlib
Codec ID : S_HDMV/PGS
Codec ID/Info : Picture based subtitle format used on BDs/HD-DVDs
Duration : 2 h 59 min
Bit rate : 41.4 kb/s
Frame rate : 0.557 FPS
Count of elements : 5992
Stream size : 53.2 MiB (0%)
Title : Traditional (From Blu-Ray)
Language : Chinese
Default : No
Forced : No
Menu #1
00:00:00.000 : en:Blu-Ray Chapter 1
00:07:23.526 : en:Chapter 2
00:16:36.078 : en:Chapter 3
00:27:23.976 : en:Chapter 4
00:36:01.534 : en:Chapter 5
00:42:51.652 : en:Chapter 6
00:52:31.607 : en:Chapter 7
00:59:56.593 : en:Chapter 8
01:10:53.541 : en:Chapter 9
01:17:58.215 : en:Chapter 10
01:24:14.341 : en:Chapter 11
01:36:07.011 : en:Chapter 12
01:43:06.931 : en:Chapter 13
01:51:19.590 : en:Chapter 14
02:00:18.378 : en:Chapter 15
02:09:02.193 : en:Chapter 16
02:17:08.637 : en:Chapter 17
02:32:04.949 : en:Chapter 18
02:47:40.634 : en:Chapter 19
02:54:12.442 : en:Chapter 20
Menu #2
00:00:00.000 : en:MA Chapter 01
00:11:40.075 : en:Chapter 02
00:24:46.486 : en:Chapter 03
00:36:01.536 : en:Chapter 04
00:42:51.654 : en:Chapter 05
00:52:05.208 : en:Chapter 06
01:03:17.922 : en:Chapter 07
01:12:50.787 : en:Chapter 08
01:24:14.346 : en:Chapter 09
01:37:37.190 : en:Chapter 10
01:51:19.596 : en:Chapter 11
02:04:40.980 : en:Chapter 12
02:19:12.268 : en:Chapter 13
02:33:20.116 : en:Chapter 14
02:41:47.499 : en:Chapter 15
02:54:07.197 : en:Chapter 16
Category: Movies
Size: 19.8 GB
Added: Nov. 24, 2023, 9:11 a.m.
Peers: Seeders: 171, Leechers: 19,
Files:
  1. Oppenheimer.2023.1080p.MA.WEB-DL.DUAL.DD+5.1.H.264-TheBiscuitMan.mkv 19.8 GB
Multiple Quality Available: M.Q.A
IMDB tt15398776
IMDB Title Oppenheimer
IMDB Genre Biography, Drama, History,
IMDB Runtime 3:00:00 Hours
IMDB Rating 8.4
Director Christopher Nolan
IMDB cast Cillian Murphy, Emily Blunt, Matt Damon
IMDB plot The story of American scientist J. Robert Oppenheimer and his role in the development of the atomic bomb.

Comment below